Gladiator (2000) Extended 1080p 10bit Bluray x265 HEVC [Org DD 5....

seeders: 9
leechers: 17
updated:
Added by McuDudeS in Other


# LIMITED VPN OFFER #
strongly advises you to use NordVPN while downloading torrents.
NordVPN is the safest VPN on the market, and the fastest VPN as well.
No IP Log is saved using NordVPN, avoid other VPN providers and choose the safest one.
Click here and buy NordVPN it's on rebates today!
We were able to verify your IP: 83.139.142.63, country: Russian Federation and you are near by: Voronezh.
If we can do that, others can too, protect your privacy with NordVPN.
is trying the best for you!
# LIMITED VPN OFFER #


Description

 

Summer 2000 A.D....  
 


Gladiator (2000) Extended 1080p 10bit Bluray x265 HEVC [Org DD 5.1 Hindi + DD 5.1 English] ESubs ~ TombDoc  
Org Untouched DD+ 5.1 640Kbps Hindi Audio By Hammer & Ext. By Peter {Thanks}  
Code:Format : Matroska
Format version : Version 4
File size : 5.28 GiB
Duration : 2 h 50 min
Overall bit rate : 4 424 kb/s
Writing frontend : TombDoc

Video
ID : 1
Format : HEVC
Format/Info : High Efficiency Video Coding
Format profile : Main [email protected]@Main
Codec ID : V_MPEGH/ISO/HEVC
Duration : 2 h 50 min
Bit rate : 3 350 kb/s
Width : 1 920 pixels
Height : 816 pixels
Display aspect ratio : 2.35:1
Frame rate mode : Constant
Frame rate : 23.976 (24000/1001) FPS
Color space : YUV
Chroma subsampling : 4:2:0
Bit depth : 10 bits
Bits/(Pixel*Frame) : 0.089
Stream size : 4.00 GiB (76%)
Writing library : x265 3.0_RC+11-9a975542fe39:[Windows][MSVC 1920][64 bit] 10bit
Encoding settings : cpuid=1049583 / frame-threads=5 / numa-pools=16,16 / wpp / no-pmode / no-pme / no-psnr / no-ssim / log-level=2 / input-csp=1 / input-res=1920x816 / interlace=0 / total-frames=245920 / level-idc=0 / high-tier=1 / uhd-bd=0 / ref=4 / no-allow-non-conformance / no-repeat-headers / annexb / no-aud / no-hrd / info / hash=0 / no-temporal-layers / open-gop / min-keyint=23 / keyint=250 / gop-lookahead=0 / bframes=8 / b-adapt=2 / b-pyramid / bframe-bias=0 / rc-lookahead=25 / lookahead-slices=4 / scenecut=40 / radl=0 / no-splice / no-intra-refresh / ctu=64 / min-cu-size=8 / rect / no-amp / max-tu-size=32 / tu-inter-depth=1 / tu-intra-depth=1 / limit-tu=0 / rdoq-level=2 / dynamic-rd=0.00 / ssim-rd / signhide / no-tskip / nr-intra=0 / nr-inter=0 / no-constrained-intra / strong-intra-smoothing / max-merge=3 / limit-refs=3 / limit-modes / me=3 / subme=3 / merange=57 / temporal-mvp / weightp / no-weightb / no-analyze-src-pics / deblock=0:0 / sao / no-sao-non-deblock / rd=4 / no-early-skip / rskip / no-fast-intra / no-tskip-fast / no-cu-lossless / no-b-intra / no-splitrd-skip / rdpenalty=0 / psy-rd=0.00 / psy-rdoq=1.00 / no-rd-refine / no-lossless / cbqpoffs=0 / crqpoffs=0 / rc=abr / bitrate=3350 / qcomp=0.60 / qpstep=4 / stats-write=0 / stats-read=2 / cplxblur=20.0 / qblur=0.5 / ipratio=1.40 / pbratio=1.30 / aq-mode=3 / aq-strength=1.00 / cutree / zone-count=0 / no-strict-cbr / qg-size=32 / no-rc-grain / qpmax=69 / qpmin=0 / no-const-vbv / sar=0 / overscan=0 / videoformat=5 / range=0 / colorprim=2 / transfer=2 / colormatrix=1 / chromaloc=0 / display-window=0 / max-cll=0,0 / min-luma=0 / max-luma=1023 / log2-max-poc-lsb=8 / vui-timing-info / vui-hrd-info / slices=1 / no-opt-qp-pps / no-opt-ref-list-length-pps / no-multi-pass-opt-rps / scenecut-bias=0.05 / no-opt-cu-delta-qp / aq-motion / no-hdr / no-hdr-opt / no-dhdr10-opt / no-idr-recovery-sei / analysis-reuse-level=5 / scale-factor=0 / refine-intra=0 / refine-inter=0 / refine-mv=0 / refine-ctu-distortion=0 / no-limit-sao / ctu-info=0 / no-lowpass-dct / refine-analysis-type=0 / copy-pic=1 / max-ausize-factor=1.0 / no-dynamic-refine / no-single-sei / hevc-aq / qp-adaptation-range=1.00
Default : Yes
Forced : No
Color range : Limited
Matrix coefficients : BT.709

Audio #1
ID : 2
Format : AC-3
Format/Info : Audio Coding 3
Commercial name : Dolby Digital
Codec ID : A_AC3
Duration : 2 h 50 min
Bit rate mode : Constant
Bit rate : 640 kb/s
Channel(s) : 6 channels
Channel layout : L R C LFE Ls Rs
Sampling rate : 48.0 kHz
Frame rate : 31.250 FPS (1536 SPF)
Bit depth : 16 bits
Compression mode : Lossy
Stream size : 783 MiB (14%)
Title : Org Ext. DD 5.1 640Kbps ~ TombDoc
Language : Hindi
Service kind : Complete Main
Default : Yes
Forced : Yes

Audio #2
ID : 3
Format : AC-3
Format/Info : Audio Coding 3
Commercial name : Dolby Digital
Codec ID : A_AC3
Duration : 2 h 50 min
Bit rate mode : Constant
Bit rate : 384 kb/s
Channel(s) : 6 channels
Channel layout : L R C LFE Ls Rs
Sampling rate : 48.0 kHz
Frame rate : 31.250 FPS (1536 SPF)
Bit depth : 16 bits
Compression mode : Lossy
Stream size : 470 MiB (9%)
Title : DD 5.1 English
Language : English
Service kind : Complete Main
Default : No
Forced : No

Text #1
ID : 4
Format : PGS
Muxing mode : zlib
Codec ID : S_HDMV/PGS
Codec ID/Info : Picture based subtitle format used on BDs/HD-DVDs
Duration  : 2 h 41 min
Bit rate : 25.9 kb/s
Count of elements : 3250
Stream size : 29.8 MiB (1%)
Title : Eng BD-PGS
Language : English
Default : Yes
Forced : Yes

Text #2
ID : 5
Format : PGS
Muxing mode : zlib
Codec ID : S_HDMV/PGS
Codec ID/Info : Picture based subtitle format used on BDs/HD-DVDs
Duration : 2 h 46 min
Bit rate : 73.1 kb/s
Count of elements : 5691
Stream size : 87.2 MiB (2%)
Title : Commentary 1
Language : English
Default : No
Forced : No

Text #3
ID : 6
Format : PGS
Muxing mode : zlib
Codec ID : S_HDMV/PGS
Codec ID/Info : Picture based subtitle format used on BDs/HD-DVDs
Duration : 2 h 43 min
Bit rate : 65.6 kb/s
Count of elements : 4903
Stream size : 76.8 MiB (1%)
Title : Commentary 2
Language : English
Default : No
Forced : No

Menu
00:00:00.000 : en:Chapter 01
00:07:13.308 : en:Chapter 02
00:12:50.103 : en:Chapter 03
00:18:44.790 : en:Chapter 04
00:23:29.325 : en:Chapter 05
00:32:58.393 : en:Chapter 06
00:37:34.878 : en:Chapter 07
00:40:50.740 : en:Chapter 08
00:47:32.725 : en:Chapter 09
00:51:35.843 : en:Chapter 10
00:55:44.383 : en:Chapter 11
01:02:21.279 : en:Chapter 12
01:09:56.984 : en:Chapter 13
01:19:08.285 : en:Chapter 14
01:29:21.648 : en:Chapter 15
01:37:11.784 : en:Chapter 16
01:41:35.798 : en:Chapter 17
01:51:58.837 : en:Chapter 18
01:56:36.281 : en:Chapter 19
02:00:43.486 : en:Chapter 20
02:04:42.225 : en:Chapter 21
02:12:19.014 : en:Chapter 22
02:13:32.588 : en:Chapter 23
02:24:15.438 : en:Chapter 24
02:28:48.670 : en:Chapter 25
02:34:20.793 : en:Chapter 26
02:38:43.597 : en:Chapter 27
02:42:57.768 : en:Chapter 28 
 
Code:Source: Gladiator 2000 2in1 1080p EUR BluRay AVC DTS-HD MA 5.1-HDBEE  
 

Sharing Widget


Download torrent
Size: 5.3 GB
seeders:9
leechers:17
Gladiator (2000) Extended 1080p 10bit Bluray x265 HEVC [Org DD 5.... - (5690831667 Bytes)



To share this torrent use the code below and insert it into comments, status messages, forum posts or your signature.

Torrent: Gladiator (2000) Extended 1080p 10bit Bluray x265 HEVC [Org DD 5....

Trackers

tracker name
udp://tracker.coppersurfer.tk:6969/announce
udp://tracker.leechers-paradise.org:6969/announce
udp://tracker.opentrackr.org:1337/announce
udp://tracker.internetwarriors.net:1337/announce
udp://9.rarbg.to:2710/announce
udp://exodus.desync.com:6969/announce
udp://explodie.org:6969/announce
http://tracker3.itzmx.com:6961/announce
udp://tracker2.itzmx.com:6961/announce
udp://tracker1.itzmx.com:8080/announce
udp://tracker.torrent.eu.org:451/announce
udp://tracker.tiny-vps.com:6969/announce
udp://thetracker.org:80/announce
udp://open.stealth.si:80/announce
udp://tracker.zer0day.to:1337/announce
udp://tracker.leechers-paradise.org:6969/announce
udp://coppersurfer.tk:6969/announce
ĀµTorrent compatible trackers list

Locations

name
KickassTorrents
Torrent hash: 838FD65C743C56779B26D38996D703A5E9B2F7CF

# LIMITED VPN OFFER #
strongly advises you to use NordVPN while downloading torrents.
NordVPN is the safest VPN on the market, and the fastest VPN as well.
No IP Log is saved using NordVPN, avoid other VPN providers and choose the safest one.
Click here and buy NordVPN it's on rebates today!
We were able to verify your IP: 83.139.142.63, country: Russian Federation and you are near by: Voronezh.
If we can do that, others can too, protect your privacy with NordVPN.
is trying the best for you!
# LIMITED VPN OFFER #


All Comments

*comments box temporarily disabled*
Report a bug